website statistics
Were no Angels 1955 초고화질 BluRay x265.10 DTS 2.0 > 영화 > 대한민국 No.1 바다보아

팝업레이어 알림

ibekr_block.png
 [구글검색] 구글에서 바다보아 검색 - 구글에서 토렌트를 검색하실 때에 검색어 뒤에 바다보아를 꼭 붙여서 검색하세요.     바다보아에서 광고중인 웹에 문제가 있다면 상단에 나와 있는 운영자 이메일로 연락 주십시오.     다운로드가 완료될 때까지 저희가 함께하겠습니다. 편안한 시간 되십시오.

웹하드 찐플

   

   

   

Were no Angels 1955 초고화질 BluRay x265.10 DTS 2.0

qebe.jpg

Sorry, the disc just popped up yesterday


Settings ~ CRF 18 ~ Main 10 @ Level 4 ~ Slow preset ~ AQ Mode 3, Bframes 8, vbv-maxrate=10300, and RC Lookahead 46 ﴾͡๏̯͡๏﴿

Pick the audio you want DTS or AC-3. Remove extra with MKV Tool Nix

qebe.jpg




Code:


General
Format : Matroska
Format version : Version 4 / Version 2
File size : 9.19 GiB
Duration : 1 h 45 min
Overall bit rate : 12.4 Mb/s
Movie name : Were no Angels x265.10 qebe
Encoded date : UTC 2021-01-13 00:59:21
Writing application : mkvmerge v51.0.0 (I Wish) 64-bit
Writing library : libebml v1.4.0 + libmatroska v1.6.2

Video
ID : 1
Format : HEVC
Format/Info : High Efficiency Video Coding
Format profile : Main [email protected]@High
Codec ID : V_MPEGH/ISO/HEVC
Duration : 1 h 45 min
Bit rate : 10.2 Mb/s
Width : 1 920 pixels
Height : 1 080 pixels
Display aspect ratio : 16:9
Frame rate mode : Constant
Frame rate : 23.976 (24000/1001) FPS
Color space : YUV
Chroma subsampling : 4:2:0
Bit depth : 10 bits
Bits/(Pixel*Frame) : 0.206
Stream size : 7.58 GiB (82%)
Writing library : x265 3.4+35-772bb4c84:[Windows][GCC 10.2.1][64 bit] 10bit
Encoding settings : cpuid=1111039 / frame-threads=3 / numa-pools=8 / wpp / no-pmode / no-pme / no-psnr / no-ssim / log-level=2 / input-csp=1 / input-res=1920x1080 / interlace=0 / total-frames=152377 / level-idc=0 / high-tier=1 / uhd-bd=0 / ref=4 / no-allow-non-conformance / no-repeat-headers / annexb / no-aud / no-hrd / info / hash=0 / no-temporal-layers / open-gop / min-keyint=23 / keyint=250 / gop-lookahead=0 / bframes=8 / b-adapt=2 / b-pyramid / bframe-bias=0 / rc-lookahead=46 / lookahead-slices=4 / scenecut=40 / hist-scenecut=0 / radl=0 / no-splice / no-intra-refresh / ctu=64 / min-cu-size=8 / rect / no-amp / max-tu-size=32 / tu-inter-depth=1 / tu-intra-depth=1 / limit-tu=0 / rdoq-level=2 / dynamic-rd=0.00 / no-ssim-rd / signhide / no-tskip / nr-intra=0 / nr-inter=0 / no-constrained-intra / strong-intra-smoothing / max-merge=3 / limit-refs=3 / limit-modes / me=3 / subme=3 / merange=57 / temporal-mvp / no-frame-dup / no-hme / weightp / no-weightb / no-analyze-src-pics / deblock=0:0 / sao / no-sao-non-deblock / rd=4 / selective-sao=4 / no-early-skip / rskip / no-fast-intra / no-tskip-fast / no-cu-lossless / no-b-intra / no-splitrd-skip / rdpenalty=0 / psy-rd=2.00 / psy-rdoq=1.00 / no-rd-refine / no-lossless / cbqpoffs=0 / crqpoffs=0 / rc=crf / crf=18.0 / qcomp=0.60 / qpstep=4 / stats-write=0 / stats-read=0 / vbv-maxrate=10300 / vbv-bufsize=30000 / vbv-init=0.9 / min-vbv-fullness=50.0 / max-vbv-fullness=80.0 / crf-max=0.0 / crf-min=0.0 / ipratio=1.40 / pbratio=1.30 / aq-mode=3 / aq-strength=1.00 / cutree / zone-count=0 / no-strict-cbr / qg-size=32 / no-rc-grain / qpmax=69 / qpmin=0 / no-const-vbv / sar=0 / overscan=0 / videoformat=5 / range=0 / colorprim=1 / transfer=1 / colormatrix=1 / chromaloc=0 / display-window=0 / cll=0,0 / min-luma=0 / max-luma=1023 / log2-max-poc-lsb=8 / vui-timing-info / vui-hrd-info / slices=1 / no-opt-qp-pps / no-opt-ref-list-length-pps / no-multi-pass-opt-rps / scenecut-bias=0.05 / hist-threshold=0.03 / no-opt-cu-delta-qp / no-aq-motion / no-hdr10 / no-hdr10-opt / no-dhdr10-opt / no-idr-recovery-sei / analysis-reuse-level=0 / analysis-save-reuse-level=0 / analysis-load-reuse-level=0 / scale-factor=0 / refine-intra=0 / refine-inter=0 / refine-mv=1 / refine-ctu-distortion=0 / no-limit-sao / ctu-info=0 / no-lowpass-dct / refine-analysis-type=0 / copy-pic=1 / max-ausize-factor=1.0 / no-dynamic-refine / no-single-sei / no-hevc-aq / no-svt / no-field / qp-adaptation-range=1.00 / scenecut-aware-qp=0conformance-window-offsets / right=0 / bottom=0 / decoder-max-rate=0 / no-vbv-live-multi-pass
Default : Yes
Forced : No
Color range : Limited
Color primaries : BT.709
Transfer characteristics : BT.709
Matrix coefficients : BT.709

Audio #1
ID : 2
Format : DTS
Format/Info : Digital Theater Systems
Mode : 16
Format settings, Endianness : Big
Codec ID : A_DTS
Duration : 1 h 45 min
Bit rate mode : Constant
Bit rate : 1 509 kb/s
Channel(s) : 2 channels
Channel positions : Front: L R
Sampling rate : 48.0 kHz
Frame rate : 93.750 FPS (512 SPF)
Bit depth : 16 bits
Compression mode : Lossy
Stream size : 1.12 GiB (12%)
Title : Stereo
Language : English
Default : Yes
Forced : No

Audio #2
ID : 3
Format : AC-3
Format/Info : Audio Coding 3
Format settings, Endianness : Big
Codec ID : A_AC3
Duration : 1 h 45 min
Bit rate mode : Constant
Bit rate : 640 kb/s
Channel(s) : 2 channels
Channel positions : Front: L R
Sampling rate : 48.0 kHz
Frame rate : 31.250 FPS (1536 SPF)
Bit depth : 16 bits
Compression mode : Lossy
Stream size : 485 MiB (5%)
Title : Stereo
Language : English
Service kind : Complete Main
Default : No
Forced : No

Text #1
ID : 4
Format : PGS
Muxing mode : zlib
Codec ID : S_HDMV/PGS
Codec ID/Info : Picture based subtitle format used on BDs/HD-DVDs
Duration : 1 h 42 min
Bit rate : 50.3 kb/s
Count of elements : 2996
Stream size : 36.7 MiB (0%)
Language : English
Default : No
Forced : No

Text #2
ID : 5
Format : PGS
Muxing mode : zlib
Codec ID : S_HDMV/PGS
Codec ID/Info : Picture based subtitle format used on BDs/HD-DVDs
Duration : 1 h 43 min
Bit rate : 54.4 kb/s
Count of elements : 2332
Stream size : 40.2 MiB (0%)
Language : English
Default : No
Forced : No

Menu
00:00:00.000 : en:Chapter 01
00:10:28.544 : en:Chapter 02
00:17:16.243 : en:Chapter 03
00:25:43.416 : en:Chapter 04
00:34:50.755 : en:Chapter 05
00:41:54.261 : en:Chapter 06
00:49:58.662 : en:Chapter 07
00:58:13.114 : en:Chapter 08
01:03:26.511 : en:Chapter 09
01:10:47.159 : en:Chapter 10
01:18:21.697 : en:Chapter 11
01:28:23.339 : en:Chapter 12
01:34:00.801 : en:Chapter 13
01:39:43.102 : en:Chapter 14

Were no Angels 1955 초고화질 BluRay x265.10 DTS 2.0
번역하기: 한국 한국어


<< 이 게시판에서 관련된 자료 목록 >>
 [구글검색] 구글에서 바다보아 검색 - 구글에서 토렌트를 검색하실 때에 검색어 뒤에 바다보아를 꼭 붙여서 검색하세요.     바다보아에서 광고중인 웹에 문제가 있다면 상단에 나와 있는 운영자 이메일로 연락 주십시오.     다운로드가 완료될 때까지 저희가 함께하겠습니다. 편안한 시간 되십시오.

웹하드 도도파일

   

   

   

IMFORMATION STORE

상단으로 가운데로 하단으로