website statistics
A Clockwork Orange (1971) (2160p BluRay AI x265 HEVC 10bit EAC3 5... > 영화 > 대한민국 No.1 바다보아

팝업레이어 알림

ibekr_block.png
 [구글검색] 구글에서 바다보아 검색 - 구글에서 토렌트를 검색하실 때에 검색어 뒤에 바다보아를 꼭 붙여서 검색하세요.     바다보아에서 광고중인 웹에 문제가 있다면 상단에 나와 있는 운영자 이메일로 연락 주십시오.     사용자님의 다운로드가 완료될 때까지 저희가 함께하겠습니다. 편안하고 즐거운 시간 되십시오.

웹하드 찐플

  

  

A Clockwork Orange (1971) (2160p BluRay AI x265 HEVC 10bit EAC3 5...

댓글 : 0 조회 : 35 인증 0 신고 0 자료가 없을 때 씨앗이 부족할 때 속도가 느릴 때 토렌트에 없을 때
d3b6b24ce9a53a31acf3a8e867225ed2.png


Media Information
I refuse to be limited to the sources that the studios let us have. As such I used AI Inference Software and days of processing to create a new source sharp and clean of compression artifacts. Enjoy this world exclusive 4K Source from the good people at UTR.

The Blu-ray release is the Uncensored/X which is also R but not the same R as the Theatrical Release of the old VHS R. Confused yet?

Media Information


Code:

General
Format                                   : Matroska
Format version                           : Version 4 / Version 2
File size                                : 6.39 GiB
Duration                                 : 2 h 16 min
Overall bit rate                         : 6 691 kb/s
Encoded date                             : UTC 2021-02-21 06:25:00
Writing application                      : mkvmerge v52.0.0 (Secret For The Mad) 64-bit
Writing library                          : libebml v1.4.1 + libmatroska v1.6.2
Cover                                    : Yes
Attachments                              : cover.jpg

Video
ID                                       : 1
Format                                   : HEVC
Format/Info                              : High Efficiency Video Coding
Format profile                           : Main [email protected]@Main
Codec ID                                 : V_MPEGH/ISO/HEVC
Duration                                 : 2 h 16 min
Bit rate                                 : 6 000 kb/s
Width                                    : 3 600 pixels
Height                                   : 2 160 pixels
Display aspect ratio                     : 5:3
Frame rate mode                          : Constant
Frame rate                               : 23.976 (24000/1001) FPS
Color space                              : YUV
Chroma subsampling                       : 4:2:0
Bit depth                                : 10 bits
Bits/(Pixel*Frame)                       : 0.032
Stream size                              : 5.73 GiB (90%)
Writing library                          : x265 3.4+70-90fa80a85:[DJATOMs Mod][Windows][GCC 10.2.1][64 bit] 10bit
Encoding settings                        : cpuid=1111039 / frame-threads=4 / numa-pools=24 / wpp / no-pmode / no-pme / no-psnr / ssim / log-level=2 / input-csp=1 / input-res=3600x2160 / interlace=0 / total-frames=196536 / level-idc=0 / high-tier=1 / uhd-bd=0 / ref=4 / no-allow-non-conformance / no-repeat-headers / annexb / no-aud / no-hrd / info / hash=0 / no-temporal-layers / open-gop / min-keyint=23 / keyint=250 / gop-lookahead=0 / bframes=4 / b-adapt=2 / b-pyramid / bframe-bias=0 / rc-lookahead=25 / lookahead-slices=4 / scenecut=40 / hist-scenecut=0 / radl=0 / no-splice / no-intra-refresh / ctu=64 / min-cu-size=8 / no-rect / no-amp / max-tu-size=32 / tu-inter-depth=1 / tu-intra-depth=1 / limit-tu=0 / rdoq-level=2 / dynamic-rd=0.00 / ssim-rd / signhide / no-tskip / nr-intra=0 / nr-inter=0 / no-constrained-intra / strong-intra-smoothing / max-merge=3 / limit-refs=3 / limit-modes / me=3 / subme=3 / merange=57 / temporal-mvp / no-frame-dup / no-hme / weightp / no-weightb / no-analyze-src-pics / deblock=0:0 / sao / no-sao-non-deblock / rd=4 / selective-sao=4 / early-skip / rskip / no-fast-intra / no-tskip-fast / no-cu-lossless / no-b-intra / splitrd-skip / rdpenalty=0 / psy-rd=0.00 / psy-rdoq=0.00 / no-rd-refine / no-lossless / cbqpoffs=0 / crqpoffs=0 / rc=abr / bitrate=6000 / qcomp=0.60 / qpstep=4 / stats-write=0 / stats-read=2 / cplxblur=20.0 / qblur=0.5 / ipratio=1.40 / pbratio=1.30 / aq-mode=3 / aq-strength=0.40 / cutree / zone-count=0 / no-strict-cbr / qg-size=32 / no-rc-grain / qpmax=69 / qpmin=0 / no-const-vbv / sar=0 / overscan=0 / videoformat=5 / range=0 / colorprim=1 / transfer=1 / colormatrix=1 / chromaloc=0 / display-window=0 / cll=0,0 / min-luma=0 / max-luma=1023 / log2-max-poc-lsb=8 / vui-timing-info / no-vui-hrd-info / slices=1 / no-opt-qp-pps / no-opt-ref-list-length-pps / multi-pass-opt-rps / scenecut-bias=0.05 / hist-threshold=0.01 / no-opt-cu-delta-qp / no-aq-motion / no-hdr10 / no-hdr10-opt / no-dhdr10-opt / no-idr-recovery-sei / analysis-load / analysis-reuse-level=0 / analysis-save-reuse-level=0 / analysis-load-reuse-level=10 / scale-factor=0 / refine-intra=0 / refine-inter=0 / refine-mv=1 / refine-ctu-distortion=0 / no-limit-sao / ctu-info=0 / no-lowpass-dct / refine-analysis-type=0 / copy-pic=1 / max-ausize-factor=1.0 / no-dynamic-refine / no-single-sei / no-hevc-aq / no-svt / no-field / qp-adaptation-range=1.00 / scenecut-aware-qp / scenecut-window=500 / qp-delta-ref=5.000000 / qp-delta-nonref=6.500000conformance-window-offsets / right=0 / bottom=0 / decoder-max-rate=0 / no-vbv-live-multi-pass
Default                                  : Yes
Forced                                   : No
Color range                              : Limited
Color primaries                          : BT.709
Transfer characteristics                 : BT.709
Matrix coefficients                      : BT.709

Audio #1
ID                                       : 2
Format                                   : E-AC-3
Format/Info                              : Enhanced Audio Coding 3
Format settings, Endianness              : Big
Codec ID                                 : A_EAC3
Duration                                 : 2 h 16 min
Bit rate mode                            : Constant
Bit rate                                 : 512 kb/s
Channel(s)                               : 6 channels
Channel positions                        : Front: L C R, Side: L R, LFE
Sampling rate                            : 48.0 kHz
Frame rate                               : 187.500 FPS (256 spf)
Compression mode                         : Lossy
Stream size                              : 500 MiB (8%)
Language                                 : English
Default                                  : No
Forced                                   : No

Audio #2
ID                                       : 3
Format                                   : E-AC-3
Format/Info                              : Enhanced Audio Coding 3
Format settings, Endianness              : Big
Codec ID                                 : A_EAC3
Duration                                 : 2 h 16 min
Bit rate mode                            : Constant
Bit rate                                 : 64.0 kb/s
Channel(s)                               : 2 channels
Channel positions                        : Front: L R
Sampling rate                            : 48.0 kHz
Frame rate                               : 187.500 FPS (256 spf)
Compression mode                         : Lossy
Stream size                              : 62.5 MiB (1%)
Title                                    : Commentary by actor Malcolm McDowell
Language                                 : English
Default                                  : No
Forced                                   : No

Subtitle #1
ID                                       : 4
Format                                   : PGS
Muxing mode                              : zlib
Codec ID                                 : S_HDMV/PGS
Codec ID/Info                            : Picture based subtitle format used on BDs/HD-DVDs
Duration                                 : 2 h 14 min
Bit rate                                 : 32.5 kb/s
Count of elements                        : 3606
Stream size                              : 31.4 MiB (0%)
Title                                    : SDH
Language                                 : English
Default                                  : No
Forced                                   : No

Subtitle #2
ID                                       : 5
Format                                   : VobSub
Muxing mode                              : zlib
Codec ID                                 : S_VOBSUB
Codec ID/Info                            : Picture based subtitle format used on DVDs
Duration                                 : 2 h 15 min
Bit rate                                 : 6 111 b/s
Count of elements                        : 1156
Stream size                              : 5.94 MiB (0%)
Language                                 : Chinese
Default                                  : No
Forced                                   : No

Subtitle #3
ID                                       : 6
Format                                   : VobSub
Muxing mode                              : zlib
Codec ID                                 : S_VOBSUB
Codec ID/Info                            : Picture based subtitle format used on DVDs
Duration                                 : 2 h 16 min
Bit rate                                 : 14.2 kb/s
Count of elements                        : 2334
Stream size                              : 13.9 MiB (0%)
Language                                 : Chinese
Default                                  : No
Forced                                   : No

Subtitle #4
ID                                       : 7
Format                                   : VobSub
Muxing mode                              : zlib
Codec ID                                 : S_VOBSUB
Codec ID/Info                            : Picture based subtitle format used on DVDs
Duration                                 : 2 h 16 min
Bit rate                                 : 7 681 b/s
Count of elements                        : 1559
Stream size                              : 7.50 MiB (0%)
Language                                 : Danish
Default                                  : No
Forced                                   : No

Subtitle #5
ID                                       : 8
Format                                   : VobSub
Muxing mode                              : zlib
Codec ID                                 : S_VOBSUB
Codec ID/Info                            : Picture based subtitle format used on DVDs
Duration                                 : 2 h 14 min
Bit rate                                 : 8 609 b/s
Count of elements                        : 1533
Stream size                              : 8.31 MiB (0%)
Language                                 : Dutch
Default                                  : No
Forced                                   : No

Subtitle #6
ID                                       : 9
Format                                   : VobSub
Muxing mode                              : zlib
Codec ID                                 : S_VOBSUB
Codec ID/Info                            : Picture based subtitle format used on DVDs
Duration                                 : 2 h 15 min
Bit rate                                 : 8 113 b/s
Count of elements                        : 1534
Stream size                              : 7.89 MiB (0%)
Language                                 : Finnish
Default                                  : No
Forced                                   : No

Subtitle #7
ID                                       : 10
Format                                   : VobSub
Muxing mode                              : zlib
Codec ID                                 : S_VOBSUB
Codec ID/Info                            : Picture based subtitle format used on DVDs
Duration                                 : 2 h 15 min
Bit rate                                 : 8 763 b/s
Count of elements                        : 1567
Stream size                              : 8.52 MiB (0%)
Language                                 : French
Default                                  : No
Forced                                   : No

Subtitle #8
ID                                       : 11
Format                                   : VobSub
Muxing mode                              : zlib
Codec ID                                 : S_VOBSUB
Codec ID/Info                            : Picture based subtitle format used on DVDs
Duration                                 : 2 h 15 min
Bit rate                                 : 9 911 b/s
Count of elements                        : 1740
Stream size                              : 9.64 MiB (0%)
Language                                 : German
Default                                  : No
Forced                                   : No

Subtitle #9
ID                                       : 12
Format                                   : VobSub
Muxing mode                              : zlib
Codec ID                                 : S_VOBSUB
Codec ID/Info                            : Picture based subtitle format used on DVDs
Duration                                 : 2 h 15 min
Bit rate                                 : 9 937 b/s
Count of elements                        : 1784
Stream size                              : 9.66 MiB (0%)
Language                                 : Italian
Default                                  : No
Forced                                   : No

Subtitle #10
ID                                       : 13
Format                                   : VobSub
Muxing mode                              : zlib
Codec ID                                 : S_VOBSUB
Codec ID/Info                            : Picture based subtitle format used on DVDs
Duration                                 : 2 h 12 min
Bit rate                                 : 9 310 b/s
Count of elements                        : 2192
Stream size                              : 8.81 MiB (0%)
Language                                 : Japanese
Default                                  : No
Forced                                   : No

Subtitle #11
ID                                       : 14
Format                                   : VobSub
Muxing mode                              : zlib
Codec ID                                 : S_VOBSUB
Codec ID/Info                            : Picture based subtitle format used on DVDs
Duration                                 : 2 h 15 min
Bit rate                                 : 10.9 kb/s
Count of elements                        : 2016
Stream size                              : 10.6 MiB (0%)
Language                                 : Japanese
Default                                  : No
Forced                                   : No

Subtitle #12
ID                                       : 15
Format                                   : VobSub
Muxing mode                              : zlib
Codec ID                                 : S_VOBSUB
Codec ID/Info                            : Picture based subtitle format used on DVDs
Duration                                 : 2 h 14 min
Bit rate                                 : 8 217 b/s
Count of elements                        : 1590
Stream size                              : 7.93 MiB (0%)
Language                                 : Norwegian Bokmal
Default                                  : No
Forced                                   : No

Subtitle #13
ID                                       : 16
Format                                   : VobSub
Muxing mode                              : zlib
Codec ID                                 : S_VOBSUB
Codec ID/Info                            : Picture based subtitle format used on DVDs
Duration                                 : 2 h 15 min
Bit rate                                 : 8 515 b/s
Count of elements                        : 1577
Stream size                              : 8.28 MiB (0%)
Language                                 : Portuguese
Default                                  : No
Forced                                   : No

Subtitle #14
ID                                       : 17
Format                                   : VobSub
Muxing mode                              : zlib
Codec ID                                 : S_VOBSUB
Codec ID/Info                            : Picture based subtitle format used on DVDs
Duration                                 : 2 h 14 min
Bit rate                                 : 9 407 b/s
Count of elements                        : 1662
Stream size                              : 9.08 MiB (0%)
Language                                 : Portuguese
Default                                  : No
Forced                                   : No

Subtitle #15
ID                                       : 18
Format                                   : VobSub
Muxing mode                              : zlib
Codec ID                                 : S_VOBSUB
Codec ID/Info                            : Picture based subtitle format used on DVDs
Duration                                 : 2 h 15 min
Bit rate                                 : 9 395 b/s
Count of elements                        : 1653
Stream size                              : 9.14 MiB (0%)
Language                                 : Spanish
Default                                  : No
Forced                                   : No

Subtitle #16
ID                                       : 19
Format                                   : VobSub
Muxing mode                              : zlib
Codec ID                                 : S_VOBSUB
Codec ID/Info                            : Picture based subtitle format used on DVDs
Duration                                 : 2 h 15 min
Bit rate                                 : 9 347 b/s
Count of elements                        : 1638
Stream size                              : 9.09 MiB (0%)
Language                                 : Spanish
Default                                  : No
Forced                                   : No

Subtitle #17
ID                                       : 20
Format                                   : VobSub
Muxing mode                              : zlib
Codec ID                                 : S_VOBSUB
Codec ID/Info                            : Picture based subtitle format used on DVDs
Duration                                 : 2 h 14 min
Bit rate                                 : 9 163 b/s
Count of elements                        : 1592
Stream size                              : 8.84 MiB (0%)
Language                                 : Swedish
Default                                  : No
Forced                                   : No

Subtitle #18
ID                                       : 21
Format                                   : UTF-8
Codec ID                                 : S_TEXT/UTF8
Codec ID/Info                            : UTF-8 Plain Text
Duration                                 : 2 h 13 min
Bit rate                                 : 67 b/s
Count of elements                        : 1306
Stream size                              : 66.6 KiB (0%)
Language                                 : Arabic
Default                                  : No
Forced                                   : No

Subtitle #19
ID                                       : 22
Format                                   : UTF-8
Codec ID                                 : S_TEXT/UTF8
Codec ID/Info                            : UTF-8 Plain Text
Duration                                 : 2 h 13 min
Bit rate                                 : 142 b/s
Count of elements                        : 1495
Stream size                              : 139 KiB (0%)
Language                                 : Bengali
Default                                  : No
Forced                                   : No

Subtitle #20
ID                                       : 23
Format                                   : UTF-8
Codec ID                                 : S_TEXT/UTF8
Codec ID/Info                            : UTF-8 Plain Text
Duration                                 : 2 h 13 min
Bit rate                                 : 53 b/s
Count of elements                        : 1655
Stream size                              : 52.7 KiB (0%)
Language                                 : Croatian
Default                                  : No
Forced                                   : No

Subtitle #21
ID                                       : 24
Format                                   : UTF-8
Codec ID                                 : S_TEXT/UTF8
Codec ID/Info                            : UTF-8 Plain Text
Duration                                 : 2 h 15 min
Bit rate                                 : 56 b/s
Count of elements                        : 1663
Stream size                              : 56.1 KiB (0%)
Language                                 : Czech
Default                                  : No
Forced                                   : No

Subtitle #22
ID                                       : 25
Format                                   : UTF-8
Codec ID                                 : S_TEXT/UTF8
Codec ID/Info                            : UTF-8 Plain Text
Duration                                 : 2 h 12 min
Bit rate                                 : 84 b/s
Count of elements                        : 1724
Stream size                              : 82.3 KiB (0%)
Language                                 : Persian
Default                                  : No
Forced                                   : No

Subtitle #23
ID                                       : 26
Format                                   : UTF-8
Codec ID                                 : S_TEXT/UTF8
Codec ID/Info                            : UTF-8 Plain Text
Duration                                 : 2 h 12 min
Bit rate                                 : 82 b/s
Count of elements                        : 1638
Stream size                              : 80.3 KiB (0%)
Language                                 : Greek
Default                                  : No
Forced                                   : No

Subtitle #24
ID                                       : 27
Format                                   : UTF-8
Codec ID                                 : S_TEXT/UTF8
Codec ID/Info                            : UTF-8 Plain Text
Duration                                 : 2 h 13 min
Bit rate                                 : 80 b/s
Count of elements                        : 1534
Stream size                              : 78.4 KiB (0%)
Language                                 : Hebrew
Default                                  : No
Forced                                   : No

Subtitle #25
ID                                       : 28
Format                                   : UTF-8
Codec ID                                 : S_TEXT/UTF8
Codec ID/Info                            : UTF-8 Plain Text
Duration                                 : 2 h 12 min
Bit rate                                 : 60 b/s
Count of elements                        : 1679
Stream size                              : 58.6 KiB (0%)
Language                                 : Indonesian
Default                                  : No
Forced                                   : No

Subtitle #26
ID                                       : 29
Format                                   : UTF-8
Codec ID                                 : S_TEXT/UTF8
Codec ID/Info                            : UTF-8 Plain Text
Duration                                 : 2 h 13 min
Bit rate                                 : 81 b/s
Count of elements                        : 1671
Stream size                              : 79.9 KiB (0%)
Language                                 : Vietnamese
Default                                  : No
Forced                                   : No

Menu
00:00:00.000                             : en:Alex and His Droogs
00:02:17.053                             : en:The Old Ultraviolence on a Tramp
00:04:28.017                             : en:Battling Billy Boy
00:07:32.368                             : en:Through the Real Country Dark
00:08:58.454                             : en:Country House
00:13:21.717                             : en:Disciplining Dim
00:16:46.755                             : en:At Home With Ludwig Van
00:20:02.451                             : en:Home Ill; Mr. Deltoid
00:25:47.796                             : en:The Music Shop
00:28:05.308                             : en:Two Ladies
00:29:04.200                             : en:Dissent Among Droogs
00:33:19.247                             : en:A Real Leader
00:36:30.605                             : en:The Cat Ladys House
00:43:32.192                             : en:Now a Murderer
00:47:21.088                             : en:Prsoner #655321
00:52:57.048                             : en:The Chaplains Remarks
00:55:30.452                             : en:Big Book Fantasies
01:01:19.759                             : en:The Ministers Visit
01:07:20.786                             : en:Arrival at Ludovico
01:11:13.852                             : en:"And Vidi Films I Would."
01:15:33.946                             : en:"Im Cured. Praise God!"
01:19:16.376                             : en:On Display
01:23:59.242                             : en:The Sickness
01:26:18.882                             : en:Your True Christian
01:28:09.200                             : en:Family Reunion
01:31:53.591                             : en:No Room for Alex
01:35:55.374                             : en:Three Familiar Faces
01:39:30.923                             : en:Droogs With Badges
01:42:23.178                             : en:Return to the Country House
01:49:38.863                             : en:Mr. Alexanders Hospitality
02:01:09.262                             : en:The Hospital
02:04:03.185                             : en:A Slide Show
02:07:37.566                             : en:A Very Special Visitor
02:12:34.029                             : en:"I Was Cured, All Right."
02:13:57.029                             : en:End Credits



Source Information


Code:

Release:
A Clockwork Orange (1971) BluRay.2160p.AI.DTS.UTR.mkv (54.96 GBs)


Code:

eaac5c2cd9d19f279c0989e374b401ca.png

d3b6b24ce9a53a31acf3a8e867225ed2.png


Media Information
I refuse to be limited to the sources that the studios let us have. As such I used AI Inference Software and days of processing to create a new source sharp and clean of compression artifacts. Enjoy this world exclusive 4K Source from the good people at UTR.

The Blu-ray release is the Uncensored/X which is also R but not the same R as the Theatrical Release of the old VHS R. Confused yet?

Media Information


Code:

General
Format                                   : Matroska
Format version                           : Version 4 / Version 2
File size                                : 6.39 GiB
Duration                                 : 2 h 16 min
Overall bit rate                         : 6 691 kb/s
Encoded date                             : UTC 2021-02-21 06:25:00
Writing application                      : mkvmerge v52.0.0 (Secret For The Mad) 64-bit
Writing library                          : libebml v1.4.1 + libmatroska v1.6.2
Cover                                    : Yes
Attachments                              : cover.jpg

Video
ID                                       : 1
Format                                   : HEVC
Format/Info                              : High Efficiency Video Coding
Format profile                           : Main [email protected]@Main
Codec ID                                 : V_MPEGH/ISO/HEVC
Duration                                 : 2 h 16 min
Bit rate                                 : 6 000 kb/s
Width                                    : 3 600 pixels
Height                                   : 2 160 pixels
Display aspect ratio                     : 5:3
Frame rate mode                          : Constant
Frame rate                               : 23.976 (24000/1001) FPS
Color space                              : YUV
Chroma subsampling                       : 4:2:0
Bit depth                                : 10 bits
Bits/(Pixel*Frame)                       : 0.032
Stream size                              : 5.73 GiB (90%)
Writing library                          : x265 3.4+70-90fa80a85:[DJATOMs Mod][Windows][GCC 10.2.1][64 bit] 10bit
Encoding settings                        : cpuid=1111039 / frame-threads=4 / numa-pools=24 / wpp / no-pmode / no-pme / no-psnr / ssim / log-level=2 / input-csp=1 / input-res=3600x2160 / interlace=0 / total-frames=196536 / level-idc=0 / high-tier=1 / uhd-bd=0 / ref=4 / no-allow-non-conformance / no-repeat-headers / annexb / no-aud / no-hrd / info / hash=0 / no-temporal-layers / open-gop / min-keyint=23 / keyint=250 / gop-lookahead=0 / bframes=4 / b-adapt=2 / b-pyramid / bframe-bias=0 / rc-lookahead=25 / lookahead-slices=4 / scenecut=40 / hist-scenecut=0 / radl=0 / no-splice / no-intra-refresh / ctu=64 / min-cu-size=8 / no-rect / no-amp / max-tu-size=32 / tu-inter-depth=1 / tu-intra-depth=1 / limit-tu=0 / rdoq-level=2 / dynamic-rd=0.00 / ssim-rd / signhide / no-tskip / nr-intra=0 / nr-inter=0 / no-constrained-intra / strong-intra-smoothing / max-merge=3 / limit-refs=3 / limit-modes / me=3 / subme=3 / merange=57 / temporal-mvp / no-frame-dup / no-hme / weightp / no-weightb / no-analyze-src-pics / deblock=0:0 / sao / no-sao-non-deblock / rd=4 / selective-sao=4 / early-skip / rskip / no-fast-intra / no-tskip-fast / no-cu-lossless / no-b-intra / splitrd-skip / rdpenalty=0 / psy-rd=0.00 / psy-rdoq=0.00 / no-rd-refine / no-lossless / cbqpoffs=0 / crqpoffs=0 / rc=abr / bitrate=6000 / qcomp=0.60 / qpstep=4 / stats-write=0 / stats-read=2 / cplxblur=20.0 / qblur=0.5 / ipratio=1.40 / pbratio=1.30 / aq-mode=3 / aq-strength=0.40 / cutree / zone-count=0 / no-strict-cbr / qg-size=32 / no-rc-grain / qpmax=69 / qpmin=0 / no-const-vbv / sar=0 / overscan=0 / videoformat=5 / range=0 / colorprim=1 / transfer=1 / colormatrix=1 / chromaloc=0 / display-window=0 / cll=0,0 / min-luma=0 / max-luma=1023 / log2-max-poc-lsb=8 / vui-timing-info / no-vui-hrd-info / slices=1 / no-opt-qp-pps / no-opt-ref-list-length-pps / multi-pass-opt-rps / scenecut-bias=0.05 / hist-threshold=0.01 / no-opt-cu-delta-qp / no-aq-motion / no-hdr10 / no-hdr10-opt / no-dhdr10-opt / no-idr-recovery-sei / analysis-load / analysis-reuse-level=0 / analysis-save-reuse-level=0 / analysis-load-reuse-level=10 / scale-factor=0 / refine-intra=0 / refine-inter=0 / refine-mv=1 / refine-ctu-distortion=0 / no-limit-sao / ctu-info=0 / no-lowpass-dct / refine-analysis-type=0 / copy-pic=1 / max-ausize-factor=1.0 / no-dynamic-refine / no-single-sei / no-hevc-aq / no-svt / no-field / qp-adaptation-range=1.00 / scenecut-aware-qp / scenecut-window=500 / qp-delta-ref=5.000000 / qp-delta-nonref=6.500000conformance-window-offsets / right=0 / bottom=0 / decoder-max-rate=0 / no-vbv-live-multi-pass
Default                                  : Yes
Forced                                   : No
Color range                              : Limited
Color primaries                          : BT.709
Transfer characteristics                 : BT.709
Matrix coefficients                      : BT.709

Audio #1
ID                                       : 2
Format                                   : E-AC-3
Format/Info                              : Enhanced Audio Coding 3
Format settings, Endianness              : Big
Codec ID                                 : A_EAC3
Duration                                 : 2 h 16 min
Bit rate mode                            : Constant
Bit rate                                 : 512 kb/s
Channel(s)                               : 6 channels
Channel positions                        : Front: L C R, Side: L R, LFE
Sampling rate                            : 48.0 kHz
Frame rate                               : 187.500 FPS (256 spf)
Compression mode                         : Lossy
Stream size                              : 500 MiB (8%)
Language                                 : English
Default                                  : No
Forced                                   : No

Audio #2
ID                                       : 3
Format                                   : E-AC-3
Format/Info                              : Enhanced Audio Coding 3
Format settings, Endianness              : Big
Codec ID                                 : A_EAC3
Duration                                 : 2 h 16 min
Bit rate mode                            : Constant
Bit rate                                 : 64.0 kb/s
Channel(s)                               : 2 channels
Channel positions                        : Front: L R
Sampling rate                            : 48.0 kHz
Frame rate                               : 187.500 FPS (256 spf)
Compression mode                         : Lossy
Stream size                              : 62.5 MiB (1%)
Title                                    : Commentary by actor Malcolm McDowell
Language                                 : English
Default                                  : No
Forced                                   : No

Subtitle #1
ID                                       : 4
Format                                   : PGS
Muxing mode                              : zlib
Codec ID                                 : S_HDMV/PGS
Codec ID/Info                            : Picture based subtitle format used on BDs/HD-DVDs
Duration                                 : 2 h 14 min
Bit rate                                 : 32.5 kb/s
Count of elements                        : 3606
Stream size                              : 31.4 MiB (0%)
Title                                    : SDH
Language                                 : English
Default                                  : No
Forced                                   : No

Subtitle #2
ID                                       : 5
Format                                   : VobSub
Muxing mode                              : zlib
Codec ID                                 : S_VOBSUB
Codec ID/Info                            : Picture based subtitle format used on DVDs
Duration                                 : 2 h 15 min
Bit rate                                 : 6 111 b/s
Count of elements                        : 1156
Stream size                              : 5.94 MiB (0%)
Language                                 : Chinese
Default                                  : No
Forced                                   : No

Subtitle #3
ID                                       : 6
Format                                   : VobSub
Muxing mode                              : zlib
Codec ID                                 : S_VOBSUB
Codec ID/Info                            : Picture based subtitle format used on DVDs
Duration                                 : 2 h 16 min
Bit rate                                 : 14.2 kb/s
Count of elements                        : 2334
Stream size                              : 13.9 MiB (0%)
Language                                 : Chinese
Default                                  : No
Forced                                   : No

Subtitle #4
ID                                       : 7
Format                                   : VobSub
Muxing mode                              : zlib
Codec ID                                 : S_VOBSUB
Codec ID/Info                            : Picture based subtitle format used on DVDs
Duration                                 : 2 h 16 min
Bit rate                                 : 7 681 b/s
Count of elements                        : 1559
Stream size                              : 7.50 MiB (0%)
Language                                 : Danish
Default                                  : No
Forced                                   : No

Subtitle #5
ID                                       : 8
Format                                   : VobSub
Muxing mode                              : zlib
Codec ID                                 : S_VOBSUB
Codec ID/Info                            : Picture based subtitle format used on DVDs
Duration                                 : 2 h 14 min
Bit rate                                 : 8 609 b/s
Count of elements                        : 1533
Stream size                              : 8.31 MiB (0%)
Language                                 : Dutch
Default                                  : No
Forced                                   : No

Subtitle #6
ID                                       : 9
Format                                   : VobSub
Muxing mode                              : zlib
Codec ID                                 : S_VOBSUB
Codec ID/Info                            : Picture based subtitle format used on DVDs
Duration                                 : 2 h 15 min
Bit rate                                 : 8 113 b/s
Count of elements                        : 1534
Stream size                              : 7.89 MiB (0%)
Language                                 : Finnish
Default                                  : No
Forced                                   : No

Subtitle #7
ID                                       : 10
Format                                   : VobSub
Muxing mode                              : zlib
Codec ID                                 : S_VOBSUB
Codec ID/Info                            : Picture based subtitle format used on DVDs
Duration                                 : 2 h 15 min
Bit rate                                 : 8 763 b/s
Count of elements                        : 1567
Stream size                              : 8.52 MiB (0%)
Language                                 : French
Default                                  : No
Forced                                   : No

Subtitle #8
ID                                       : 11
Format                                   : VobSub
Muxing mode                              : zlib
Codec ID                                 : S_VOBSUB
Codec ID/Info                            : Picture based subtitle format used on DVDs
Duration                                 : 2 h 15 min
Bit rate                                 : 9 911 b/s
Count of elements                        : 1740
Stream size                              : 9.64 MiB (0%)
Language                                 : German
Default                                  : No
Forced                                   : No

Subtitle #9
ID                                       : 12
Format                                   : VobSub
Muxing mode                              : zlib
Codec ID                                 : S_VOBSUB
Codec ID/Info                            : Picture based subtitle format used on DVDs
Duration                                 : 2 h 15 min
Bit rate                                 : 9 937 b/s
Count of elements                        : 1784
Stream size                              : 9.66 MiB (0%)
Language                                 : Italian
Default                                  : No
Forced                                   : No

Subtitle #10
ID                                       : 13
Format                                   : VobSub
Muxing mode                              : zlib
Codec ID                                 : S_VOBSUB
Codec ID/Info                            : Picture based subtitle format used on DVDs
Duration                                 : 2 h 12 min
Bit rate                                 : 9 310 b/s
Count of elements                        : 2192
Stream size                              : 8.81 MiB (0%)
Language                                 : Japanese
Default                                  : No
Forced                                   : No

Subtitle #11
ID                                       : 14
Format                                   : VobSub
Muxing mode                              : zlib
Codec ID                                 : S_VOBSUB
Codec ID/Info                            : Picture based subtitle format used on DVDs
Duration                                 : 2 h 15 min
Bit rate                                 : 10.9 kb/s
Count of elements                        : 2016
Stream size                              : 10.6 MiB (0%)
Language                                 : Japanese
Default                                  : No
Forced                                   : No

Subtitle #12
ID                                       : 15
Format                                   : VobSub
Muxing mode                              : zlib
Codec ID                                 : S_VOBSUB
Codec ID/Info                            : Picture based subtitle format used on DVDs
Duration                                 : 2 h 14 min
Bit rate                                 : 8 217 b/s
Count of elements                        : 1590
Stream size                              : 7.93 MiB (0%)
Language                                 : Norwegian Bokmal
Default                                  : No
Forced                                   : No

Subtitle #13
ID                                       : 16
Format                                   : VobSub
Muxing mode                              : zlib
Codec ID                                 : S_VOBSUB
Codec ID/Info                            : Picture based subtitle format used on DVDs
Duration                                 : 2 h 15 min
Bit rate                                 : 8 515 b/s
Count of elements                        : 1577
Stream size                              : 8.28 MiB (0%)
Language                                 : Portuguese
Default                                  : No
Forced                                   : No

Subtitle #14
ID                                       : 17
Format                                   : VobSub
Muxing mode                              : zlib
Codec ID                                 : S_VOBSUB
Codec ID/Info                            : Picture based subtitle format used on DVDs
Duration                                 : 2 h 14 min
Bit rate                                 : 9 407 b/s
Count of elements                        : 1662
Stream size                              : 9.08 MiB (0%)
Language                                 : Portuguese
Default                                  : No
Forced                                   : No

Subtitle #15
ID                                       : 18
Format                                   : VobSub
Muxing mode                              : zlib
Codec ID                                 : S_VOBSUB
Codec ID/Info                            : Picture based subtitle format used on DVDs
Duration                                 : 2 h 15 min
Bit rate                                 : 9 395 b/s
Count of elements                        : 1653
Stream size                              : 9.14 MiB (0%)
Language                                 : Spanish
Default                                  : No
Forced                                   : No

Subtitle #16
ID                                       : 19
Format                                   : VobSub
Muxing mode                              : zlib
Codec ID                                 : S_VOBSUB
Codec ID/Info                            : Picture based subtitle format used on DVDs
Duration                                 : 2 h 15 min
Bit rate                                 : 9 347 b/s
Count of elements                        : 1638
Stream size                              : 9.09 MiB (0%)
Language                                 : Spanish
Default                                  : No
Forced                                   : No
<
번역하기: 한국 한국어


<< 이 게시판에서 관련된 자료 목록 >>
 [구글검색] 구글에서 바다보아 검색 - 구글에서 토렌트를 검색하실 때에 검색어 뒤에 바다보아를 꼭 붙여서 검색하세요.     바다보아에서 광고중인 웹에 문제가 있다면 상단에 나와 있는 운영자 이메일로 연락 주십시오.     사용자님의 다운로드가 완료될 때까지 저희가 함께하겠습니다. 편안하고 즐거운 시간 되십시오.

웹하드 파일썬

  

  

IMFORMATION STORE

상단으로 가운데로 하단으로